<?xml version="1.0" standalone="no"?>
<!DOCTYPE svg PUBLIC "-//W3C//DTD SVG 1.1//EN" "http://www.w3.org/Graphics/SVG/1.1/DTD/svg11.dtd">
<svg xmlns="http://www.w3.org/2000/svg">
<defs >
<font id="OpenSans" horiz-adv-x="1311" ><font-face
    font-family="Open Sans ExtraBold"
    units-per-em="2048"
    panose-1="0 0 0 0 0 0 0 0 0 0"
    ascent="2189"
    descent="-600"
    alphabetic="0" />
<glyph unicode=" " glyph-name="space" horiz-adv-x="532" />
<glyph unicode="!" glyph-name="exclam" horiz-adv-x="594" d="M463 516H133L82 1462H514L463 516ZM86 166Q86 272 148 315T297 358Q382 358 443 315T504 166Q504 65 443 20T297 -25Q211 -25 149 20T86 166Z" />
<glyph unicode="&quot;" glyph-name="quotedbl" horiz-adv-x="1073" d="M477 1462L436 934H162L121 1462H477ZM952 1462L911 934H637L596 1462H952Z" />
<glyph unicode="#" glyph-name="numbersign" horiz-adv-x="1356" d="M1042 813L1012 645H1255V391H965L891 0H623L696 391H528L457 0H190L262 391H37V645H311L342 813H104V1073H391L463 1462H731L657 1073H823L895 1462H1163L1090 1073H1319V813H1042ZM578 645H743L774
813H608L578 645Z" />
<glyph unicode="$" glyph-name="dollar" horiz-adv-x="1182" d="M496 -119V45Q363 48 268 70T86 129V442Q183 399 292 374T496 340V592Q369 629 269 680T111 814T53 1028Q53 1152 108 1234T263 1361T496 1415V1556H684V1417Q809 1411 911 1384T1096 1323L1008
1049Q932 1081 849 1101T684 1128V881Q827 838 927 790T1081 667T1135 471Q1135 305 1026 190T684 49V-119H496ZM684 344Q744 353 772 376T801 438Q801 464 791 482T755 516T684 545V344ZM496 936V1126Q459 1123 434 1113T396 1084T383 1042Q383 1017 394 998T430
965T496 936Z" />
<glyph unicode="%" glyph-name="percent" horiz-adv-x="1942" d="M410 1483Q582 1483 686 1363T791 1026Q791 809 693 687T410 565Q242 565 140 687T37 1026Q37 1243 133 1363T410 1483ZM414 1239Q371 1239 355 1181T338 1022Q338 924 354 865T414 805Q457 805
473 863T489 1022Q489 1122 473 1180T414 1239ZM1520 1462L709 0H412L1223 1462H1520ZM1522 901Q1694 901 1798 781T1903 444Q1903 228 1805 106T1522 -16Q1354 -16 1252 106T1149 444Q1149 661 1245 781T1522 901ZM1526 657Q1483 657 1467 599T1450 440Q1450 342
1466 283T1526 223Q1569 223 1585 281T1602 440Q1602 544 1586 600T1526 657Z" />
<glyph unicode="&amp;" glyph-name="ampersand" horiz-adv-x="1636" d="M676 1481Q814 1481 914 1440T1068 1321T1122 1133Q1122 1006 1049 914T858 750L1057 561Q1092 615 1119 681T1161 821H1567Q1535 673 1469 536T1327 307L1647 0H1141L1042 102Q987 68 933
40T801 -4T602 -20Q431 -20 313 37T133 191T72 406Q72 493 103 567T195 702T344 807Q303 854 274 904T229 1010T213 1133Q213 1234 265 1312T421 1436T676 1481ZM557 592Q529 571 511 546T484 493T475 434Q475 371 520 331T639 291Q696 291 739 306T805 340L557
592ZM670 1225Q628 1225 597 1201T565 1120Q565 1076 591 1037T653 965Q710 997 740 1042T770 1133Q770 1182 742 1203T670 1225Z" />
<glyph unicode="&apos;" glyph-name="quotesingle" horiz-adv-x="598" d="M477 1462L436 934H162L121 1462H477Z" />
<glyph unicode="(" glyph-name="parenleft" horiz-adv-x="735" d="M74 582Q74 749 101 913T189 1228T354 1503H680Q542 1311 480 1069T418 584Q418 425 445 264T529 -48T678 -324H354Q251 -204 190 -56T101 254T74 582Z" />
<glyph unicode=")" glyph-name="parenright" horiz-adv-x="735" d="M662 582Q662 417 635 255T547 -56T381 -324H57Q149 -199 206 -49T290 263T317 584Q317 746 290 908T206 1223T55 1503H381Q485 1379 546 1229T635 914T662 582Z" />
<glyph unicode="*" glyph-name="asterisk" horiz-adv-x="1100" d="M702 1556L664 1204L1020 1305L1057 1010L743 989L950 711L690 573L547 856L424 575L152 711L358 989L45 1014L90 1305L438 1204L399 1556H702Z" />
<glyph unicode="+" glyph-name="plus" horiz-adv-x="1200" d="M733 856H1106V588H733V227H465V588H92V856H465V1223H733V856Z" />
<glyph unicode="," glyph-name="comma" horiz-adv-x="633" d="M498 299L512 276Q494 203 466 101T404 -105T336 -285H57Q77 -191 96 -87T131 117T156 299H498Z" />
<glyph unicode="-" glyph-name="hyphen" horiz-adv-x="651" d="M43 393V705H608V393H43Z" />
<glyph unicode="." glyph-name="period" horiz-adv-x="592" d="M86 166Q86 272 148 315T299 358Q382 358 443 315T504 166Q504 65 443 20T299 -25Q211 -25 149 20T86 166Z" />
<glyph unicode="/" glyph-name="slash" horiz-adv-x="905" d="M901 1483L356 -20H10L555 1483H901Z" />
<glyph unicode="0" glyph-name="zero" horiz-adv-x="1200" d="M1128 729Q1128 553 1100 415T1011 179T848 31T600 -20Q417 -20 300 69T128 326T72 729Q72 966 122 1134T289 1393T600 1483Q783 1483 899 1394T1072 1136T1128 729ZM465 729Q465 586 475 489T515
344T600 295Q655 295 684 343T724 488T735 729Q735 874 724 971T684 1117T600 1167Q545 1167 516 1118T476 971T465 729Z" />
<glyph unicode="1" glyph-name="one" horiz-adv-x="1200" d="M942 0H541V723Q541 743 541 796T542 915T547 1032Q521 1001 499 979T455 938L289 801L84 1053L586 1462H942V0Z" />
<glyph unicode="2" glyph-name="two" horiz-adv-x="1200" d="M1122 0H61V260L418 621Q529 737 590 807T677 926T702 1028Q702 1093 660 1122T561 1151Q492 1151 422 1112T262 995L45 1249Q111 1308 185 1361T360 1449T606 1483Q755 1483 864 1431T1034 1289T1094
1083Q1094 956 1048 857T908 658T676 432L569 336V326H1122V0Z" />
<glyph unicode="3" glyph-name="three" horiz-adv-x="1200" d="M1073 1145Q1073 1041 1029 966T911 842T750 770V764Q925 742 1020 658T1116 418Q1116 298 1052 199T853 40T506 -20Q364 -20 264 1T70 59V387Q165 338 265 315T449 291Q593 291 645 332T698 442Q698
492 673 527T581 581T387 600H297V897H389Q501 897 566 917T661 971T690 1051Q690 1109 645 1137T526 1165Q460 1165 402 1147T301 1107T236 1071L72 1335Q163 1397 280 1440T588 1483Q814 1483 943 1393T1073 1145Z" />
<glyph unicode="4" glyph-name="four" horiz-adv-x="1200" d="M1169 283H1008V0H618V283H35V573L643 1462H1008V578H1169V283ZM618 578V748Q618 771 619 806T621 876T624 936T627 963H616Q597 918 581 889T539 819L377 578H618Z" />
<glyph unicode="5" glyph-name="five" horiz-adv-x="1200" d="M664 958Q786 958 886 903T1046 743T1106 487Q1106 324 1041 211T844 39T512 -20Q385 -20 281 -1T94 59V383Q171 348 279 320T479 291Q552 291 603 312T680 374T707 475Q707 558 647 605T465 653Q410
653 357 642T264 618L119 690L174 1462H1008V1133H510L492 940Q524 946 557 952T664 958Z" />
<glyph unicode="6" glyph-name="six" horiz-adv-x="1200" d="M70 618Q70 744 88 868T153 1103T286 1299T507 1434T836 1483Q879 1483 941 1478T1044 1466V1157Q1003 1165 952 1170T827 1176Q679 1176 594 1132T470 1004T426 805H438Q464 853 501 891T594 952T727
975Q855 975 947 920T1088 758T1137 500Q1137 336 1075 220T897 42T621 -20Q503 -20 403 18T228 134T112 333T70 618ZM612 293Q675 293 714 341T754 492Q754 575 722 622T616 670Q567 670 533 647T481 587T463 512Q463 473 471 434T498 364T545 313T612 293Z" />
<glyph unicode="7" glyph-name="seven" horiz-adv-x="1200" d="M209 0L711 1135H78V1462H1133V1229L618 0H209Z" />
<glyph unicode="8" glyph-name="eight" horiz-adv-x="1200" d="M604 1483Q749 1483 858 1444T1030 1326T1092 1126Q1092 1038 1060 972T971 856T840 770Q909 731 977 679T1090 557T1135 389Q1135 272 1078 180T903 34T600 -20Q415 -20 297 31T124 173T68 385Q68
487 102 557T197 676T334 764Q273 805 222 857T141 976T111 1128Q111 1246 174 1325T348 1443T604 1483ZM430 401Q430 340 474 302T596 264Q687 264 729 298T772 393Q772 438 746 474T684 538T623 580L596 596Q551 573 514 545T453 481T430 401ZM602 1198Q553 1198
517 1170T481 1092Q481 1060 496 1033T538 982T598 940Q627 957 655 977T702 1025T721 1092Q721 1141 686 1169T602 1198Z" />
<glyph unicode="9" glyph-name="nine" horiz-adv-x="1200" d="M1130 821Q1130 664 1103 533T1018 300T870 126T655 17T367 -20Q322 -20 263 -18T162 -10V303Q205 296 248 292T348 287Q513 287 603 334T731 464T774 657H762Q736 608 699 570T606 509T467 487Q344
487 254 543T113 705T63 965Q63 1128 125 1243T304 1421T582 1483Q696 1483 795 1444T970 1325T1087 1119T1130 821ZM592 1167Q523 1167 485 1120T446 969Q446 887 482 839T588 791Q632 791 665 814T718 874T737 950Q737 989 729 1027T703 1097T658 1148T592 1167Z"
/>
<glyph unicode=":" glyph-name="colon" horiz-adv-x="592" d="M86 166Q86 272 148 315T299 358Q382 358 443 315T504 166Q504 65 443 20T299 -25Q211 -25 149 20T86 166ZM86 956Q86 1061 148 1104T299 1147Q382 1147 443 1104T504 956Q504 853 443 809T299 764Q211
764 149 808T86 956Z" />
<glyph unicode=";" glyph-name="semicolon" horiz-adv-x="608" d="M498 299L512 276Q494 203 466 101T404 -105T336 -285H57Q77 -191 96 -87T131 117T156 299H498ZM92 956Q92 1061 153 1104T303 1147Q386 1147 448 1104T510 956Q510 853 448 809T303 764Q215 764
154 808T92 956Z" />
<glyph unicode="&lt;" glyph-name="less" horiz-adv-x="1200" d="M1104 178L92 627V799L1104 1305V1008L483 725L1104 473V178Z" />
<glyph unicode="=" glyph-name="equal" horiz-adv-x="1200" d="M92 815V1083H1108V815H92ZM92 358V629H1108V358H92Z" />
<glyph unicode="&gt;" glyph-name="greater" horiz-adv-x="1200" d="M92 473L713 725L92 1008V1305L1104 799V627L92 178V473Z" />
<glyph unicode="?" glyph-name="question" horiz-adv-x="1034" d="M295 516V602Q295 664 310 714T366 809T477 899Q545 942 577 973T619 1031T629 1085Q629 1127 591 1151T492 1176Q416 1176 328 1149T139 1069L0 1341Q113 1406 241 1444T520 1483Q747 1483 872
1383T997 1118Q997 1040 973 975T897 853T760 741Q700 703 666 676T617 624T602 567V516H295ZM252 166Q252 272 313 315T463 358Q547 358 608 315T670 166Q670 65 609 20T463 -25Q375 -25 314 20T252 166Z" />
<glyph unicode="@" glyph-name="at" horiz-adv-x="1837" d="M1755 756Q1755 660 1731 567T1658 399T1539 278T1376 233Q1303 233 1237 263T1133 352H1118Q1072 302 1008 268T858 233Q668 233 574 344T479 639Q479 774 537 881T710 1051T991 1114Q1091 1114 1187
1095T1348 1053L1327 631Q1327 620 1326 592T1325 537Q1325 489 1339 470T1374 451Q1411 451 1437 493T1477 605T1491 758Q1491 911 1433 1023T1260 1196T973 1257Q821 1257 705 1209T511 1074T394 867T354 606Q354 445 415 325T597 140T899 74Q1013 74 1151 100T1413
170V-59Q1307 -104 1179 -129T913 -154Q651 -154 465 -62T181 202T82 610Q82 795 144 953T322 1230T602 1415T969 1481Q1206 1481 1382 1393T1657 1143T1755 756ZM760 641Q760 541 796 496T893 451Q974 451 1008 516T1053 733L1063 889Q1043 892 1029 893T995 895Q913
895 861 860T785 768T760 641Z" />
<glyph unicode="A" glyph-name="A" horiz-adv-x="1487" d="M1055 0L983 274H508L434 0H0L477 1468H1004L1487 0H1055ZM901 598L838 838Q828 877 809 949T772 1099T743 1227Q734 1177 718 1104T684 958T653 838L590 598H901Z" />
<glyph unicode="B" glyph-name="B" horiz-adv-x="1380" d="M158 1462H668Q985 1462 1120 1368T1255 1098Q1255 1002 1221 935T1134 829T1026 776V766Q1086 751 1145 717T1244 614T1284 428Q1284 295 1217 199T1024 52T727 0H158V1462ZM553 901H672Q770 901 810
941T850 1040Q850 1100 805 1131T664 1163H553V901ZM553 612V305H692Q795 305 836 349T877 461Q877 500 860 534T800 590T684 612H553Z" />
<glyph unicode="C" glyph-name="C" horiz-adv-x="1329" d="M809 1159Q739 1159 684 1130T590 1044T531 908T510 725Q510 587 545 493T651 351T831 303Q929 303 1019 330T1202 395V61Q1105 18 1004 -1T788 -20Q550 -20 399 74T176 337T104 727Q104 893 150 1031T287
1270T509 1427T813 1483Q919 1483 1036 1459T1266 1380L1145 1069Q1065 1107 983 1133T809 1159Z" />
<glyph unicode="D" glyph-name="D" horiz-adv-x="1503" d="M1399 762Q1399 507 1304 338T1037 85T631 0H158V1462H664Q900 1462 1064 1381T1313 1144T1399 762ZM989 748Q989 881 954 968T847 1099T668 1143H553V324H641Q821 324 905 428T989 748Z" />
<glyph unicode="E" glyph-name="E" horiz-adv-x="1124" d="M1026 0H158V1462H1026V1145H553V915H991V598H553V322H1026V0Z" />
<glyph unicode="F" glyph-name="F" horiz-adv-x="1104" d="M547 0H158V1462H1022V1145H547V866H985V549H547V0Z" />
<glyph unicode="G" glyph-name="G" horiz-adv-x="1516" d="M745 856H1376V68Q1263 29 1117 5T811 -20Q600 -20 441 62T193 311T104 735Q104 965 192 1132T451 1391T872 1483Q1009 1483 1132 1457T1346 1391L1221 1081Q1142 1120 1057 1139T874 1159Q743 1159 664
1100T548 943T512 725Q512 589 550 496T663 354T844 305Q879 305 929 310T1006 322V551H745V856Z" />
<glyph unicode="H" glyph-name="H" horiz-adv-x="1569" d="M1411 0H1014V596H555V0H158V1462H555V920H1014V1462H1411V0Z" />
<glyph unicode="I" glyph-name="I" horiz-adv-x="713" d="M158 0V1462H555V0H158Z" />
<glyph unicode="J" glyph-name="J" horiz-adv-x="721" d="M43 -459Q-24 -459 -74 -453T-162 -438V-131Q-130 -137 -94 -144T-16 -152Q55 -152 94 -123T150 -36T166 109V1462H563V143Q563 -77 497 -209T314 -400T43 -459Z" />
<glyph unicode="K" glyph-name="K" horiz-adv-x="1407" d="M1407 0H961L672 559L555 489V0H158V1462H555V827Q580 875 612 923T676 1014L983 1462H1415L954 807L1407 0Z" />
<glyph unicode="L" glyph-name="L" horiz-adv-x="1192" d="M158 0V1462H553V319H1116V0H158Z" />
<glyph unicode="M" glyph-name="M" horiz-adv-x="1980" d="M795 0L496 1053H487Q491 1012 495 942T504 791T508 635V0H158V1462H684L989 424H997L1296 1462H1823V0H1460V641Q1460 710 1462 789T1468 939T1475 1051H1466L1171 0H795Z" />
<glyph unicode="N" glyph-name="N" horiz-adv-x="1708" d="M1550 0H1032L498 1030H489Q494 983 498 917T505 783T508 659V0H158V1462H674L1206 446H1212Q1209 494 1206 557T1201 686T1198 801V1462H1550V0Z" />
<glyph unicode="O" glyph-name="O" horiz-adv-x="1632" d="M1526 733Q1526 564 1486 426T1359 187T1138 34T815 -20Q631 -20 497 33T275 186T146 425T104 735Q104 963 179 1131T413 1392T817 1485Q1067 1485 1223 1392T1453 1130T1526 733ZM520 733Q520 601 550
506T645 360T815 309Q924 309 988 360T1081 506T1110 733Q1110 931 1044 1046T817 1161Q710 1161 645 1109T550 961T520 733Z" />
<glyph unicode="P" glyph-name="P" horiz-adv-x="1294" d="M664 1462Q942 1462 1080 1341T1219 997Q1219 897 1191 805T1098 641T927 527T664 485H553V0H158V1462H664ZM655 1143H553V807H631Q682 807 726 824T796 881T823 987Q823 1056 782 1099T655 1143Z" />
<glyph unicode="Q" glyph-name="Q" horiz-adv-x="1632" d="M1526 733Q1526 581 1494 452T1392 224T1210 63L1567 -348H1075L829 -20Q828 -20 823 -20T815 -20Q631 -20 497 33T275 186T146 425T104 735Q104 963 179 1131T413 1392T817 1485Q1067 1485 1223 1392T1453
1130T1526 733ZM520 733Q520 601 550 506T645 360T815 309Q924 309 988 360T1081 506T1110 733Q1110 931 1044 1046T817 1161Q710 1161 645 1109T550 961T520 733Z" />
<glyph unicode="R" glyph-name="R" horiz-adv-x="1386" d="M637 1462Q836 1462 968 1414T1166 1269T1233 1030Q1233 941 1203 868T1118 738T985 637L1411 0H963L653 532H553V0H158V1462H637ZM631 1163H553V829H627Q718 829 776 869T834 1012Q834 1083 786 1123T631 1163Z" />
<glyph unicode="S" glyph-name="S" horiz-adv-x="1182" d="M1114 444Q1114 325 1054 219T868 46T541 -20Q441 -20 366 -11T225 18T90 72V424Q209 364 330 333T549 301Q608 301 645 315T701 353T719 410Q719 448 693 474T608 530T455 602Q374 640 309 680T197 771T125
892T100 1055Q100 1196 169 1291T363 1435T651 1483Q794 1483 908 1451T1114 1378L993 1073Q899 1116 808 1141T639 1167Q588 1167 556 1155T508 1121T492 1073Q492 1039 518 1012T607 954T778 872Q885 824 960 769T1074 636T1114 444Z" />
<glyph unicode="T" glyph-name="T" horiz-adv-x="1210" d="M803 0H408V1139H51V1462H1159V1139H803V0Z" />
<glyph unicode="U" glyph-name="U" horiz-adv-x="1550" d="M1401 1462V582Q1401 398 1331 263T1121 54T770 -20Q468 -20 309 135T150 573V1462H547V604Q547 449 605 379T776 309Q857 309 908 339T982 436T1006 606V1462H1401Z" />
<glyph unicode="V" glyph-name="V" horiz-adv-x="1421" d="M1421 1462L942 0H477L0 1462H444L643 721Q654 679 668 614T695 483T711 377Q715 418 726 482T750 610T776 717L979 1462H1421Z" />
<glyph unicode="W" glyph-name="W" horiz-adv-x="2128" d="M2097 1462L1737 0H1270L1130 637Q1126 655 1118 698T1099 796T1080 904T1067 995Q1063 958 1054 905T1035 796T1015 698T1001 637L860 0H393L31 1462H412L571 729Q577 702 587 653T609 545T631 432T645
342Q653 404 666 483T696 643T728 795T754 909L883 1462H1249L1374 909Q1384 866 1399 796T1431 643T1462 482T1483 342Q1489 392 1503 468T1531 617T1554 727L1716 1462H2097Z" />
<glyph unicode="X" glyph-name="X" horiz-adv-x="1481" d="M1475 0H1018L733 457L451 0H4L489 748L33 1462H471L735 1010L989 1462H1440L977 717L1475 0Z" />
<glyph unicode="Y" glyph-name="Y" horiz-adv-x="1360" d="M680 920L932 1462H1360L879 571V0H481V559L0 1462H430L680 920Z" />
<glyph unicode="Z" glyph-name="Z" horiz-adv-x="1251" d="M1200 0H61V244L694 1143H76V1462H1184V1219L551 319H1200V0Z" />
<glyph unicode="[" glyph-name="bracketleft" horiz-adv-x="664" d="M616 -344H117V1503H616V1249H434V-90H616V-344Z" />
<glyph unicode="\" glyph-name="backslash" horiz-adv-x="905" d="M352 1483L897 -20H551L6 1483H352Z" />
<glyph unicode="]" glyph-name="bracketright" horiz-adv-x="664" d="M47 -90H229V1249H47V1503H547V-344H47V-90Z" />
<glyph unicode="^" glyph-name="asciicircum" horiz-adv-x="1075" d="M-16 502L424 1468H594L1102 502H807L518 1079L270 502H-16Z" />
<glyph unicode="_" glyph-name="underscore" horiz-adv-x="1024" d="M1028 -379H-4V-133H1028V-379Z" />
<glyph unicode="`" glyph-name="grave" horiz-adv-x="856" d="M512 1569Q547 1523 595 1468T692 1361T774 1270V1241H514Q472 1267 414 1307T293 1391T175 1477T82 1548V1569H512Z" />
<glyph unicode="a" glyph-name="a" horiz-adv-x="1276" d="M688 1153Q903 1153 1024 1047T1145 743V0H874L799 150H791Q743 90 693 53T577 -2T418 -20Q320 -20 242 20T119 141T74 346Q74 528 200 616T565 715L754 721V737Q754 813 717 845T616 877Q549 877 467
854T301 793L188 1051Q286 1101 410 1127T688 1153ZM756 506L666 502Q558 498 515 465T471 369Q471 311 502 284T584 256Q655 256 705 301T756 418V506Z" />
<glyph unicode="b" glyph-name="b" horiz-adv-x="1317" d="M526 1556V1204Q526 1144 522 1090T512 987H526Q570 1056 641 1104T827 1153Q1004 1153 1116 1003T1229 569Q1229 376 1177 245T1032 47T815 -20Q695 -20 633 21T526 111H502L440 0H135V1556H526ZM684
846Q630 846 595 821T543 744T526 610V555Q526 423 561 359T688 295Q757 295 794 366T831 573Q831 709 795 777T684 846Z" />
<glyph unicode="c" glyph-name="c" horiz-adv-x="1104" d="M651 -20Q479 -20 352 41T156 231T86 561Q86 767 163 898T376 1091T682 1153Q786 1153 879 1130T1053 1067L938 778Q868 809 808 827T682 846Q623 846 578 815T508 722T483 563Q483 465 508 405T579 318T684
291Q769 291 853 317T1014 391V80Q944 34 856 7T651 -20Z" />
<glyph unicode="d" glyph-name="d" horiz-adv-x="1317" d="M487 -20Q312 -20 199 129T86 565Q86 855 202 1004T502 1153Q578 1153 633 1131T728 1072T799 987H807Q800 1030 794 1105T788 1253V1556H1182V0H887L803 143H788Q761 98 721 61T623 2T487 -20ZM647 289Q741
289 779 348T821 530V561Q821 695 784 766T643 838Q573 838 527 770T481 559Q481 418 527 354T647 289Z" />
<glyph unicode="e" glyph-name="e" horiz-adv-x="1266" d="M645 1153Q810 1153 930 1096T1115 923T1180 635V461H481Q486 372 547 315T729 258Q835 258 923 279T1106 344V63Q1024 20 927 0T682 -20Q511 -20 376 41T164 230T86 559Q86 763 156 894T352 1089T645
1153ZM659 887Q590 887 544 844T489 707H825Q824 757 805 798T750 863T659 887Z" />
<glyph unicode="f" glyph-name="f" horiz-adv-x="846" d="M827 840H586V0H195V840H45V1032L203 1128V1147Q203 1294 242 1386T366 1523T588 1567Q676 1567 747 1553T897 1513L813 1260Q784 1268 749 1274T672 1280Q627 1280 607 1253T586 1163V1133H827V840Z" />
<glyph unicode="g" glyph-name="g" horiz-adv-x="1241" d="M522 -492Q281 -492 151 -412T20 -180Q20 -79 83 -13T272 82Q220 104 182 153T143 250Q143 303 172 343T293 440Q205 479 155 562T104 764Q104 887 160 974T325 1107T590 1153Q611 1153 654 1150T741
1142T809 1133H1204V944L1049 887Q1065 858 1073 824T1081 752Q1081 569 953 468T569 367Q506 367 469 375Q462 362 459 350T455 326Q455 303 482 290T549 271T625 266H813Q1004 266 1099 186T1194 -55Q1194 -262 1018 -377T522 -492ZM541 -248Q612 -248 684 -236T805
-195T854 -121Q854 -86 825 -69T750 -45T653 -39H501Q459 -39 425 -52T370 -89T350 -141Q350 -189 402 -218T541 -248ZM594 588Q650 588 680 631T711 760Q711 848 682 892T594 936Q533 936 503 893T473 762Q473 675 503 632T594 588Z" />
<glyph unicode="h" glyph-name="h" horiz-adv-x="1372" d="M526 1556V1335Q526 1209 521 1124T510 993H528Q565 1052 612 1087T716 1137T840 1153Q952 1153 1042 1110T1187 976T1241 737V0H848V618Q848 731 815 788T713 846Q642 846 601 806T543 688T526 498V0H135V1556H526Z"
/>
<glyph unicode="i" glyph-name="i" horiz-adv-x="666" d="M528 1133V0H137V1133H528ZM334 1589Q418 1589 480 1554T543 1415Q543 1314 481 1279T334 1243Q248 1243 188 1278T127 1415Q127 1519 187 1554T334 1589Z" />
<glyph unicode="j" glyph-name="j" horiz-adv-x="664" d="M106 -492Q59 -492 -2 -485T-104 -467V-162Q-72 -171 -45 -175T16 -180Q64 -180 99 -147T135 -10V1133H526V-92Q526 -194 486 -285T354 -434T106 -492ZM125 1415Q125 1519 185 1554T332 1589Q416 1589
478 1554T541 1415Q541 1314 479 1279T332 1243Q246 1243 186 1278T125 1415Z" />
<glyph unicode="k" glyph-name="k" horiz-adv-x="1350" d="M528 1556V944Q528 875 523 791T506 637H514Q537 672 572 725T635 813L889 1133H1325L932 651L1350 0H903L655 406L528 309V0H135V1556H528Z" />
<glyph unicode="l" glyph-name="l" horiz-adv-x="662" d="M526 0H135V1556H526V0Z" />
<glyph unicode="m" glyph-name="m" horiz-adv-x="2048" d="M1518 1153Q1712 1153 1814 1054T1917 737V0H1526V616Q1526 745 1492 795T1389 846Q1294 846 1258 763T1221 528V0H829V616Q829 698 815 748T771 822T698 846Q631 846 594 806T541 687T526 496V0H135V1133H430L487
993H498Q528 1039 575 1075T688 1132T838 1153Q963 1153 1044 1111T1176 995H1188Q1242 1071 1327 1112T1518 1153Z" />
<glyph unicode="n" glyph-name="n" horiz-adv-x="1372" d="M844 1153Q1019 1153 1130 1054T1241 737V0H850V618Q850 731 818 788T713 846Q602 846 564 756T526 496V0H135V1133H430L483 983H498Q534 1037 584 1075T699 1133T844 1153Z" />
<glyph unicode="o" glyph-name="o" horiz-adv-x="1305" d="M1217 569Q1217 427 1178 317T1065 132T886 19T649 -20Q526 -20 424 18T245 132T128 317T86 569Q86 757 154 887T350 1085T655 1153Q818 1153 945 1085T1144 887T1217 569ZM483 569Q483 472 500 406T554
305T653 270Q714 270 750 304T802 405T819 569Q819 666 803 731T750 829T651 862Q562 862 523 788T483 569Z" />
<glyph unicode="p" glyph-name="p" horiz-adv-x="1317" d="M827 1153Q1015 1153 1122 1003T1229 569Q1229 376 1175 245T1028 47T815 -20Q735 -20 680 0T588 50T526 111H514Q519 72 522 27T526 -78V-492H135V1133H453L508 989H526Q554 1033 594 1070T691 1130T827
1153ZM680 846Q623 846 590 819T543 738T526 602V571Q526 481 540 420T588 327T682 295Q731 295 764 323T814 412T831 573Q831 722 793 784T680 846Z" />
<glyph unicode="q" glyph-name="q" horiz-adv-x="1317" d="M791 -492V-23Q791 19 794 60T803 143H791Q751 76 680 28T492 -20Q311 -20 199 129T86 565Q86 757 138 888T283 1086T498 1153Q616 1153 689 1107T807 993H815L844 1133H1182V-492H791ZM651 283Q715 283
752 309T805 389T821 524V571Q821 704 785 777T645 850Q564 850 524 776T483 559Q483 411 524 347T651 283Z" />
<glyph unicode="r" glyph-name="r" horiz-adv-x="961" d="M819 1153Q851 1153 886 1149T938 1141L903 772Q884 777 854 780T770 784Q733 784 691 777T612 748T550 680T526 557V0H135V1133H426L487 952H506Q537 1008 585 1053T694 1126T819 1153Z" />
<glyph unicode="s" glyph-name="s" horiz-adv-x="1059" d="M977 348Q977 240 929 157T776 27T498 -20Q377 -20 282 -7T88 43V356Q195 307 306 286T481 264Q547 264 577 278T608 322Q608 347 588 364T515 405T367 467Q273 506 211 552T117 662T86 819Q86 985 214
1069T553 1153Q665 1153 764 1129T969 1057L862 805Q778 843 692 866T555 889Q509 889 484 877T459 842Q459 821 476 805T543 768T686 709Q785 669 849 624T945 513T977 348Z" />
<glyph unicode="t" glyph-name="t" horiz-adv-x="942" d="M690 289Q743 289 787 300T879 328V43Q815 15 744 -2T561 -20Q451 -20 367 14T237 134T190 373V840H53V999L227 1122L328 1360H584V1133H862V840H584V399Q584 344 612 317T690 289Z" />
<glyph unicode="u" glyph-name="u" horiz-adv-x="1372" d="M1237 1133V0H942L893 141H870Q835 84 782 49T663 -3T528 -20Q417 -20 328 23T186 158T133 395V1133H524V514Q524 404 555 347T659 289Q733 289 773 329T830 447T846 637V1133H1237Z" />
<glyph unicode="v" glyph-name="v" horiz-adv-x="1251" d="M432 0L0 1133H408L600 463Q603 454 610 417T618 348H625Q625 382 632 413T643 461L844 1133H1251L819 0H432Z" />
<glyph unicode="w" glyph-name="w" horiz-adv-x="1864" d="M1110 0L991 496Q982 534 973 582T956 680T941 770T932 834H926Q923 811 916 770T900 678T881 577T860 481L745 0H334L25 1133H410L502 698Q512 650 522 584T541 449T553 326H559Q561 367 568 420T585
527T603 620T614 676L719 1133H1151L1247 670Q1256 631 1267 571T1289 445T1305 326H1311Q1315 381 1323 451T1341 587T1362 698L1462 1133H1839L1528 0H1110Z" />
<glyph unicode="x" glyph-name="x" horiz-adv-x="1290" d="M375 578L29 1133H473L645 815L821 1133H1266L911 578L1280 0H836L645 344L455 0H10L375 578Z" />
<glyph unicode="y" glyph-name="y" horiz-adv-x="1249" d="M-2 1133H410L602 483Q606 469 610 449T617 405T621 360H629Q634 401 640 431T653 481L850 1133H1249L801 -72Q749 -210 681 -303T512 -444T262 -492Q208 -492 170 -487T102 -475V-168Q124 -172 156 -176T223
-180Q288 -180 328 -154T395 -86T440 6L444 16L-2 1133Z" />
<glyph unicode="z" glyph-name="z" horiz-adv-x="1038" d="M987 0H49V223L518 834H76V1133H965V891L516 299H987V0Z" />
<glyph unicode="{" glyph-name="braceleft" horiz-adv-x="887" d="M821 -344Q611 -344 500 -308T348 -196T307 0V248Q307 310 271 347T179 401T61 418V719Q125 719 181 735T272 789T307 889V1143Q307 1260 347 1335T497 1446T821 1483V1204Q780 1203 736 1198T662
1171T631 1098V827Q631 703 568 647T391 575V563Q508 545 569 490T631 317V41Q631 -9 662 -31T737 -58T821 -66V-344Z" />
<glyph unicode="|" glyph-name="bar" horiz-adv-x="1042" d="M387 1556H655V-446H387V1556Z" />
<glyph unicode="}" glyph-name="braceright" horiz-adv-x="887" d="M66 -344V-66Q106 -64 150 -59T225 -31T256 41V317Q256 434 317 489T496 563V575Q382 591 319 647T256 827V1098Q256 1149 226 1171T151 1198T66 1204V1483Q279 1483 390 1447T540 1335T580 1143V889Q580
827 615 790T706 736T825 719V418Q764 418 708 401T616 347T580 248V0Q580 -120 539 -196T387 -308T66 -344Z" />
<glyph unicode="~" glyph-name="asciitilde" horiz-adv-x="1200" d="M561 592Q486 624 430 635T326 647Q266 647 206 612T92 526V807Q145 861 209 888T356 915Q416 915 476 904T637 852Q712 820 770 809T874 797Q931 797 992 832T1106 918V637Q1054 583 989 556T842
528Q782 528 722 540T561 592Z" />
<glyph unicode="&#xa0;" glyph-name="uni00A0" horiz-adv-x="532" />
<glyph unicode="&#xa1;" glyph-name="exclamdown" horiz-adv-x="594" d="M133 612H463L514 -334H82L133 612ZM510 963Q510 857 448 814T299 770Q214 770 153 813T92 963Q92 1064 153 1108T299 1153Q385 1153 447 1109T510 963Z" />
<glyph unicode="&#xa2;" glyph-name="cent" horiz-adv-x="1200" d="M772 1483V1329Q861 1325 943 1303T1096 1245L981 956Q911 987 851 1005T725 1024Q666 1024 621 993T551 900T526 741Q526 643 551 583T622 496T727 469Q812 469 896 495T1057 569V258Q999 220
930 195T772 160V-20H565V166Q430 187 332 255T182 444T129 739Q129 911 184 1030T338 1221T565 1317V1483H772Z" />
<glyph unicode="&#xa3;" glyph-name="sterling" horiz-adv-x="1200" d="M723 1485Q832 1485 936 1463T1128 1403L1018 1114Q941 1143 877 1156T766 1169Q718 1169 686 1142T653 1032V926H997V649H653V553Q653 488 628 444T567 371T494 326H1165V0H104V313Q159
345 195 373T249 442T268 551V649H102V926H268V1044Q268 1199 325 1296T485 1439T723 1485Z" />
<glyph unicode="&#xa4;" glyph-name="currency" horiz-adv-x="1159" d="M180 723Q180 770 191 815T221 899L96 1018L276 1200L399 1077Q438 1096 484 1107T571 1118Q619 1118 662 1107T748 1073L868 1200L1053 1026L926 901Q946 864 956 817T967 723Q967 674 957
631T926 547L1047 428L868 250L748 369Q709 352 664 341T571 330Q524 330 480 338T395 367L276 252L98 430L221 549Q200 590 190 632T180 723ZM436 723Q436 685 454 655T504 606T571 588Q610 588 642 606T694 654T713 723Q713 762 694 793T643 842T571 860Q535
860 504 842T455 793T436 723Z" />
<glyph unicode="&#xa5;" glyph-name="yen" horiz-adv-x="1200" d="M600 958L793 1462H1192L829 750H1024V539H782V422H1024V213H782V0H418V213H172V422H418V539H172V750H362L8 1462H408L600 958Z" />
<glyph unicode="&#xa6;" glyph-name="brokenbar" horiz-adv-x="1042" d="M387 1556H655V717H387V1556ZM387 393H655V-446H387V393Z" />
<glyph unicode="&#xa7;" glyph-name="section" horiz-adv-x="1024" d="M106 803Q106 881 158 940T270 1036Q201 1086 165 1146T129 1282Q129 1411 234 1494T535 1577Q638 1577 733 1553T905 1491L807 1270Q741 1305 668 1330T532 1356Q480 1356 452 1338T424 1282Q424
1260 438 1237T491 1188T598 1133Q715 1086 787 1034T894 925T928 803Q928 700 882 643T780 545Q836 503 870 442T905 301Q905 163 796 69T469 -25Q366 -25 279 -4T117 61V305Q175 274 239 250T364 211T471 197Q549 197 579 223T610 293Q610 321 598 343T549 389T440
444Q342 488 267 534T149 645T106 803ZM397 834Q397 800 415 773T471 718T569 659L596 645Q610 661 623 686T637 752Q637 788 621 818T565 878T455 936Q433 924 415 899T397 834Z" />
<glyph unicode="&#xa8;" glyph-name="dieresis" horiz-adv-x="1233" d="M223 1413Q223 1495 272 1533T393 1571Q462 1571 513 1533T565 1413Q565 1334 514 1296T393 1257Q321 1257 272 1295T223 1413ZM702 1413Q702 1495 751 1533T874 1571Q944 1571 995 1533T1047
1413Q1047 1334 996 1296T874 1257Q801 1257 752 1295T702 1413Z" />
<glyph unicode="&#xa9;" glyph-name="copyright" horiz-adv-x="1688" d="M844 -20Q681 -20 544 35T305 192T148 430T92 731Q92 895 147 1032T304 1270T543 1427T844 1483Q1008 1483 1145 1428T1383 1271T1539 1032T1595 731Q1595 568 1540 431T1383 192T1145 36T844
-20ZM846 262Q625 262 513 391T401 735Q401 875 449 979T595 1140T836 1198Q928 1198 1006 1178T1157 1120L1065 915Q1013 943 963 957T854 971Q775 971 729 910T682 731Q682 604 725 547T860 489Q925 489 991 505T1118 557V326Q1055 294 991 278T846 262ZM844
143Q969 143 1073 186T1252 307T1369 493T1411 731Q1411 861 1370 968T1253 1154T1073 1276T844 1319Q717 1319 612 1276T431 1155T314 969T272 731Q272 601 313 494T431 308T612 186T844 143Z" />
<glyph unicode="&#xaa;" glyph-name="ordfeminine" horiz-adv-x="813" d="M436 1479Q568 1479 650 1407T733 1190V741H571L526 868Q482 799 428 764T283 729Q218 729 165 755T80 833T49 967Q49 1054 89 1103T206 1175T393 1202L481 1206V1212Q481 1253 455 1270T379
1288Q325 1288 279 1275T168 1233L92 1399Q168 1436 241 1457T436 1479ZM481 1069L397 1063Q336 1059 319 1034T301 979Q301 947 319 929T371 911Q426 911 453 953T481 1047V1069Z" />
<glyph unicode="&#xab;" glyph-name="guillemotleft" horiz-adv-x="1395" d="M74 588L463 1071L743 922L471 575L743 227L463 80L74 561V588ZM649 588L1036 1071L1319 922L1044 575L1319 227L1036 80L649 561V588Z" />
<glyph unicode="&#xac;" glyph-name="logicalnot" horiz-adv-x="1200" d="M1106 856V238H836V588H92V856H1106Z" />
<glyph unicode="&#xad;" glyph-name="uni00AD" horiz-adv-x="651" d="M43 393V705H608V393H43Z" />
<glyph unicode="&#xae;" glyph-name="registered" horiz-adv-x="1688" d="M518 313V1188H797Q1010 1188 1101 1118T1192 918Q1192 813 1151 759T1051 676L1245 313H967L821 633H786V313H518ZM786 809H797Q855 809 888 830T922 907Q922 961 889 977T799 993H786V809ZM844
-20Q681 -20 544 35T305 192T148 430T92 731Q92 895 147 1032T304 1270T543 1427T844 1483Q1008 1483 1145 1428T1383 1271T1539 1032T1595 731Q1595 568 1540 431T1383 192T1145 36T844 -20ZM844 143Q969 143 1073 186T1252 307T1369 493T1411 731Q1411 861 1370
968T1253 1154T1073 1276T844 1319Q717 1319 612 1276T431 1155T314 969T272 731Q272 601 313 494T431 308T612 186T844 143Z" />
<glyph unicode="&#xaf;" glyph-name="overscore" horiz-adv-x="1024" d="M1030 1556H-6V1802H1030V1556Z" />
<glyph unicode="&#xb0;" glyph-name="degree" horiz-adv-x="864" d="M432 750Q325 750 242 796T111 924T63 1114Q63 1221 110 1304T241 1435T432 1483Q540 1483 623 1435T753 1304T801 1114Q801 1006 754 924T623 796T432 750ZM432 987Q492 987 527 1022T563 1114Q563
1174 528 1210T432 1247Q372 1247 337 1211T301 1114Q301 1057 336 1022T432 987Z" />
<glyph unicode="&#xb1;" glyph-name="plusminus" horiz-adv-x="1200" d="M92 0V268H1106V0H92ZM733 944H1106V676H733V315H465V676H92V944H465V1311H733V944Z" />
<glyph unicode="&#xb2;" glyph-name="uni00B2" horiz-adv-x="817" d="M750 852H76V1059L291 1272Q349 1329 381 1367T426 1433T440 1481Q440 1509 423 1523T375 1538Q341 1538 301 1521T203 1450L61 1616Q129 1678 214 1714T432 1751Q580 1751 654 1686T729 1513Q729
1434 692 1369T596 1247T469 1133L403 1077H750V852Z" />
<glyph unicode="&#xb3;" glyph-name="uni00B3" horiz-adv-x="817" d="M406 1747Q558 1747 641 1688T725 1532Q725 1456 688 1401T563 1313V1305Q660 1280 707 1228T754 1090Q754 967 654 902T379 836Q290 836 211 853T70 905V1139Q135 1094 211 1076T367 1057Q419
1057 451 1072T483 1124Q483 1152 461 1174T348 1196H244V1391H324Q408 1391 435 1413T463 1468Q463 1493 442 1514T371 1536Q322 1536 278 1520T180 1462L63 1632Q125 1680 211 1713T406 1747Z" />
<glyph unicode="&#xb4;" glyph-name="acute" horiz-adv-x="856" d="M774 1569V1548Q738 1519 682 1478T564 1392T443 1307T342 1241H82V1270Q117 1308 166 1360T264 1468T346 1569H774Z" />
<glyph unicode="&#xb5;" glyph-name="uni00B5" horiz-adv-x="1376" d="M1241 1133V0H948L895 152H879Q857 94 824 56T750 -1T666 -20Q611 -20 579 0T518 63H514Q517 35 520 -6T524 -90T526 -172V-492H135V1133H526V518Q526 403 559 346T672 289Q739 289 777 329T831
447T848 637V1133H1241Z" />
<glyph unicode="&#xb6;" glyph-name="paragraph" horiz-adv-x="1317" d="M1186 -260H995V1327H838V-260H647V559Q616 550 591 546T522 541Q395 541 301 588T154 745T102 1042Q102 1238 159 1350T317 1509T553 1556H1186V-260Z" />
<glyph unicode="&#xb7;" glyph-name="middot" horiz-adv-x="592" d="M86 723Q86 829 148 872T299 915Q382 915 443 872T504 723Q504 622 443 577T299 532Q211 532 149 577T86 723Z" />
<glyph unicode="&#xb8;" glyph-name="cedilla" horiz-adv-x="590" d="M541 -252Q541 -361 466 -426T266 -492Q196 -492 139 -481T45 -457V-264Q79 -275 111 -281T178 -287Q216 -287 238 -271T260 -229Q260 -194 227 -174T115 -139L176 0H371L352 -61Q393 -70 437
-90T511 -148T541 -252Z" />
<glyph unicode="&#xb9;" glyph-name="uni00B9" horiz-adv-x="817" d="M616 1729V852H334V1208Q334 1230 335 1276T339 1367T344 1425Q335 1407 317 1388T283 1354L203 1284L57 1454L397 1729H616Z" />
<glyph unicode="&#xba;" glyph-name="ordmasculine" horiz-adv-x="803" d="M756 1104Q756 926 659 828T399 729Q246 729 148 829T49 1104Q49 1283 144 1381T403 1479Q503 1479 582 1434T709 1306T756 1104ZM301 1104Q301 1018 325 975T401 932Q452 932 476 975T500
1104Q500 1190 476 1234T401 1278Q349 1278 325 1234T301 1104Z" />
<glyph unicode="&#xbb;" glyph-name="guillemotright" horiz-adv-x="1395" d="M1321 561L934 80L649 227L924 575L649 922L934 1071L1321 588V561ZM745 561L358 80L76 227L348 575L76 922L358 1071L745 588V561Z" />
<glyph unicode="&#xbc;" glyph-name="onequarter" horiz-adv-x="1817" d="M356 0L1110 1462H1411L657 0H356ZM264 586V942Q264 962 265 999T268 1079T274 1159Q270 1150 254 1131T217 1092L133 1018L-12 1188L328 1462H547V586H264ZM1399 0V139H1028V328L1378
883H1673V340H1798V139H1673V0H1399ZM1241 340H1399V506Q1399 541 1400 575T1405 641Q1385 590 1370 558T1343 508L1241 340Z" />
<glyph unicode="&#xbd;" glyph-name="onehalf" horiz-adv-x="1896" d="M381 0L1135 1462H1436L682 0H381ZM264 586V942Q264 951 265 983T268 1055T271 1125T274 1159Q270 1150 251 1128T211 1087L133 1018L-12 1188L328 1462H547V586H264ZM1155 0V207L1370 420Q1427
476 1459 514T1506 579T1520 629Q1520 658 1503 672T1454 686Q1414 686 1371 664T1282 598L1141 764Q1221 838 1308 868T1511 899Q1653 899 1730 837T1808 662Q1808 608 1791 561T1744 474T1679 399L1483 225H1829V0H1155Z" />
<glyph unicode="&#xbe;" glyph-name="threequarters" horiz-adv-x="1888" d="M465 0L1219 1462H1520L766 0H465ZM399 569Q307 569 230 586T90 639V872Q149 831 222 811T387 791Q446 791 475 807T504 858Q504 899 471 914T369 930H264V1124H344Q416 1124 449 1142T483
1202Q483 1227 463 1248T391 1270Q342 1270 298 1254T201 1196L84 1366Q159 1423 244 1452T426 1481Q574 1481 659 1424T745 1266Q745 1187 708 1133T584 1047V1038Q681 1014 727 962T774 823Q774 702 676 636T399 569ZM1470 0V139H1100V328L1450 883H1745V340H1870V139H1745V0H1470ZM1313
340H1470V506Q1470 541 1472 575T1477 641Q1457 590 1442 558T1415 508L1313 340Z" />
<glyph unicode="&#xbf;" glyph-name="questiondown" horiz-adv-x="1034" d="M739 612V526Q739 465 724 415T669 319T557 229Q490 186 458 155T415 97T405 43Q405 1 443 -23T542 -48Q618 -48 706 -21T895 59L1034 -213Q922 -277 794 -316T514 -355Q287 -355 162
-255T37 10Q37 89 61 154T137 276T274 387Q335 426 369 452T417 504T432 561V612H739ZM782 962Q782 856 721 813T571 770Q487 770 426 813T364 962Q364 1063 425 1108T571 1153Q659 1153 720 1108T782 962Z" />
<glyph unicode="&#xc0;" glyph-name="Agrave" horiz-adv-x="1487" d="M1055 0L983 274H508L434 0H0L477 1468H1004L1487 0H1055ZM901 598L838 838Q828 877 809 949T772 1099T743 1227Q734 1177 718 1104T684 958T653 838L590 598H901ZM741 1899Q776 1853 824 1798T921
1691T1003 1600V1571H743Q701 1597 643 1637T522 1721T404 1807T311 1878V1899H741Z" />
<glyph unicode="&#xc1;" glyph-name="Aacute" horiz-adv-x="1487" d="M1055 0L983 274H508L434 0H0L477 1468H1004L1487 0H1055ZM901 598L838 838Q828 877 809 949T772 1099T743 1227Q734 1177 718 1104T684 958T653 838L590 598H901ZM1231 1899V1878Q1195 1849
1139 1808T1021 1722T900 1637T799 1571H539V1600Q574 1638 623 1690T721 1798T803 1899H1231Z" />
<glyph unicode="&#xc2;" glyph-name="Acircumflex" horiz-adv-x="1487" d="M1055 0L983 274H508L434 0H0L477 1468H1004L1487 0H1055ZM901 598L838 838Q828 877 809 949T772 1099T743 1227Q734 1177 718 1104T684 958T653 838L590 598H901ZM944 1899Q976 1852
1023 1796T1118 1687T1200 1600V1571H946Q893 1602 846 1638T746 1721Q692 1675 649 1640T551 1571H293V1600Q332 1637 380 1689T475 1796T551 1899H944Z" />
<glyph unicode="&#xc3;" glyph-name="Atilde" horiz-adv-x="1487" d="M1055 0L983 274H508L434 0H0L477 1468H1004L1487 0H1055ZM901 598L838 838Q828 877 809 949T772 1099T743 1227Q734 1177 718 1104T684 958T653 838L590 598H901ZM320 1567Q326 1661 345 1726T396
1831T472 1890T572 1909Q610 1909 653 1895T740 1861T826 1828T908 1813Q926 1813 947 1830T979 1911H1162Q1149 1727 1082 1648T916 1569Q871 1569 826 1583T736 1617T651 1650T572 1665Q553 1665 533 1649T500 1567H320Z" />
<glyph unicode="&#xc4;" glyph-name="Adieresis" horiz-adv-x="1487" d="M1055 0L983 274H508L434 0H0L477 1468H1004L1487 0H1055ZM901 598L838 838Q828 877 809 949T772 1099T743 1227Q734 1177 718 1104T684 958T653 838L590 598H901ZM332 1743Q332 1825 381
1863T502 1901Q571 1901 622 1863T674 1743Q674 1664 623 1626T502 1587Q430 1587 381 1625T332 1743ZM811 1743Q811 1825 860 1863T983 1901Q1053 1901 1104 1863T1156 1743Q1156 1664 1105 1626T983 1587Q910 1587 861 1625T811 1743Z" />
<glyph unicode="&#xc5;" glyph-name="Aring" horiz-adv-x="1487" d="M1055 0L983 274H508L434 0H0L477 1468H1004L1487 0H1055ZM901 598L838 838Q828 877 809 949T772 1099T743 1227Q734 1177 718 1104T684 958T653 838L590 598H901ZM737 1303Q619 1303 546 1370T473
1555Q473 1674 546 1741T737 1809Q850 1809 929 1742T1009 1557Q1009 1439 930 1371T737 1303ZM737 1471Q772 1471 796 1494T821 1555Q821 1593 797 1616T737 1639Q702 1639 678 1616T653 1555Q653 1518 674 1495T737 1471Z" />
<glyph unicode="&#xc6;" glyph-name="AE" horiz-adv-x="1937" d="M1839 0H969V274H532L432 0H-10L618 1462H1839V1145H1366V915H1804V598H1366V322H1839V0ZM653 602H969V1128H858L653 602Z" />
<glyph unicode="&#xc7;" glyph-name="Ccedilla" horiz-adv-x="1329" d="M809 1159Q739 1159 684 1130T590 1044T531 908T510 725Q510 587 545 493T651 351T831 303Q929 303 1019 330T1202 395V61Q1105 18 1004 -1T788 -20Q550 -20 399 74T176 337T104 727Q104
893 150 1031T287 1270T509 1427T813 1483Q919 1483 1036 1459T1266 1380L1145 1069Q1065 1107 983 1133T809 1159ZM1012 -252Q1012 -361 937 -426T737 -492Q667 -492 610 -481T516 -457V-264Q550 -275 582 -281T649 -287Q687 -287 709 -271T731 -229Q731 -194
698 -174T586 -139L647 0H842L823 -61Q864 -70 908 -90T982 -148T1012 -252Z" />
<glyph unicode="&#xc8;" glyph-name="Egrave" horiz-adv-x="1124" d="M1026 0H158V1462H1026V1145H553V915H991V598H553V322H1026V0ZM590 1899Q625 1853 673 1798T770 1691T852 1600V1571H592Q550 1597 492 1637T371 1721T253 1807T160 1878V1899H590Z" />
<glyph unicode="&#xc9;" glyph-name="Eacute" horiz-adv-x="1124" d="M1026 0H158V1462H1026V1145H553V915H991V598H553V322H1026V0ZM1079 1899V1878Q1043 1849 987 1808T869 1722T748 1637T647 1571H387V1600Q422 1638 471 1690T569 1798T651 1899H1079Z" />
<glyph unicode="&#xca;" glyph-name="Ecircumflex" horiz-adv-x="1124" d="M1026 0H158V1462H1026V1145H553V915H991V598H553V322H1026V0ZM792 1899Q824 1852 871 1796T966 1687T1048 1600V1571H794Q741 1602 694 1638T594 1721Q540 1675 497 1640T399 1571H141V1600Q180
1637 228 1689T323 1796T399 1899H792Z" />
<glyph unicode="&#xcb;" glyph-name="Edieresis" horiz-adv-x="1124" d="M1026 0H158V1462H1026V1145H553V915H991V598H553V322H1026V0ZM180 1743Q180 1825 229 1863T350 1901Q419 1901 470 1863T522 1743Q522 1664 471 1626T350 1587Q278 1587 229 1625T180 1743ZM659
1743Q659 1825 708 1863T831 1901Q901 1901 952 1863T1004 1743Q1004 1664 953 1626T831 1587Q758 1587 709 1625T659 1743Z" />
<glyph unicode="&#xcc;" glyph-name="Igrave" horiz-adv-x="713" d="M158 0V1462H555V0H158ZM317 1899Q352 1853 400 1798T497 1691T579 1600V1571H319Q277 1597 219 1637T98 1721T-20 1807T-113 1878V1899H317Z" />
<glyph unicode="&#xcd;" glyph-name="Iacute" horiz-adv-x="713" d="M158 0V1462H555V0H158ZM845 1899V1878Q809 1849 753 1808T635 1722T514 1637T413 1571H153V1600Q188 1638 237 1690T335 1798T417 1899H845Z" />
<glyph unicode="&#xce;" glyph-name="Icircumflex" horiz-adv-x="713" d="M158 0V1462H555V0H158ZM555 1899Q587 1852 634 1796T729 1687T811 1600V1571H557Q504 1602 457 1638T357 1721Q303 1675 260 1640T162 1571H-96V1600Q-57 1637 -9 1689T86 1796T162 1899H555Z" />
<glyph unicode="&#xcf;" glyph-name="Idieresis" horiz-adv-x="713" d="M158 0V1462H555V0H158ZM-56 1743Q-56 1825 -7 1863T114 1901Q183 1901 234 1863T286 1743Q286 1664 235 1626T114 1587Q42 1587 -7 1625T-56 1743ZM423 1743Q423 1825 472 1863T595 1901Q665
1901 716 1863T768 1743Q768 1664 717 1626T595 1587Q522 1587 473 1625T423 1743Z" />
<glyph unicode="&#xd0;" glyph-name="Eth" horiz-adv-x="1503" d="M664 1462Q900 1462 1064 1381T1313 1144T1399 762Q1399 507 1304 338T1037 85T631 0H158V563H31V883H158V1462H664ZM668 1143H553V883H764V563H553V324H641Q821 324 905 428T989 748Q989 881
954 968T847 1099T668 1143Z" />
<glyph unicode="&#xd1;" glyph-name="Ntilde" horiz-adv-x="1708" d="M1550 0H1032L498 1030H489Q494 983 498 917T505 783T508 659V0H158V1462H674L1206 446H1212Q1209 494 1206 557T1201 686T1198 801V1462H1550V0ZM430 1567Q436 1661 455 1726T506 1831T582
1890T682 1909Q720 1909 763 1895T850 1861T936 1828T1018 1813Q1036 1813 1057 1830T1089 1911H1272Q1259 1727 1192 1648T1026 1569Q981 1569 936 1583T846 1617T761 1650T682 1665Q663 1665 643 1649T610 1567H430Z" />
<glyph unicode="&#xd2;" glyph-name="Ograve" horiz-adv-x="1632" d="M1526 733Q1526 564 1486 426T1359 187T1138 34T815 -20Q631 -20 497 33T275 186T146 425T104 735Q104 963 179 1131T413 1392T817 1485Q1067 1485 1223 1392T1453 1130T1526 733ZM520 733Q520
601 550 506T645 360T815 309Q924 309 988 360T1081 506T1110 733Q1110 931 1044 1046T817 1161Q710 1161 645 1109T550 961T520 733ZM815 1899Q850 1853 898 1798T995 1691T1077 1600V1571H817Q775 1597 717 1637T596 1721T478 1807T385 1878V1899H815Z" />
<glyph unicode="&#xd3;" glyph-name="Oacute" horiz-adv-x="1632" d="M1526 733Q1526 564 1486 426T1359 187T1138 34T815 -20Q631 -20 497 33T275 186T146 425T104 735Q104 963 179 1131T413 1392T817 1485Q1067 1485 1223 1392T1453 1130T1526 733ZM520 733Q520
601 550 506T645 360T815 309Q924 309 988 360T1081 506T1110 733Q1110 931 1044 1046T817 1161Q710 1161 645 1109T550 961T520 733ZM1304 1899V1878Q1268 1849 1212 1808T1094 1722T973 1637T872 1571H612V1600Q647 1638 696 1690T794 1798T876 1899H1304Z" />
<glyph unicode="&#xd4;" glyph-name="Ocircumflex" horiz-adv-x="1632" d="M1526 733Q1526 564 1486 426T1359 187T1138 34T815 -20Q631 -20 497 33T275 186T146 425T104 735Q104 963 179 1131T413 1392T817 1485Q1067 1485 1223 1392T1453 1130T1526 733ZM520
733Q520 601 550 506T645 360T815 309Q924 309 988 360T1081 506T1110 733Q1110 931 1044 1046T817 1161Q710 1161 645 1109T550 961T520 733ZM1018 1899Q1050 1852 1097 1796T1192 1687T1274 1600V1571H1020Q967 1602 920 1638T820 1721Q766 1675 723 1640T625
1571H367V1600Q406 1637 454 1689T549 1796T625 1899H1018Z" />
<glyph unicode="&#xd5;" glyph-name="Otilde" horiz-adv-x="1632" d="M1526 733Q1526 564 1486 426T1359 187T1138 34T815 -20Q631 -20 497 33T275 186T146 425T104 735Q104 963 179 1131T413 1392T817 1485Q1067 1485 1223 1392T1453 1130T1526 733ZM520 733Q520
601 550 506T645 360T815 309Q924 309 988 360T1081 506T1110 733Q1110 931 1044 1046T817 1161Q710 1161 645 1109T550 961T520 733ZM393 1567Q399 1661 418 1726T469 1831T545 1890T645 1909Q683 1909 726 1895T813 1861T899 1828T981 1813Q999 1813 1020 1830T1052
1911H1235Q1222 1727 1155 1648T989 1569Q944 1569 899 1583T809 1617T724 1650T645 1665Q626 1665 606 1649T573 1567H393Z" />
<glyph unicode="&#xd6;" glyph-name="Odieresis" horiz-adv-x="1632" d="M1526 733Q1526 564 1486 426T1359 187T1138 34T815 -20Q631 -20 497 33T275 186T146 425T104 735Q104 963 179 1131T413 1392T817 1485Q1067 1485 1223 1392T1453 1130T1526 733ZM520 733Q520
601 550 506T645 360T815 309Q924 309 988 360T1081 506T1110 733Q1110 931 1044 1046T817 1161Q710 1161 645 1109T550 961T520 733ZM405 1743Q405 1825 454 1863T575 1901Q644 1901 695 1863T747 1743Q747 1664 696 1626T575 1587Q503 1587 454 1625T405 1743ZM884
1743Q884 1825 933 1863T1056 1901Q1126 1901 1177 1863T1229 1743Q1229 1664 1178 1626T1056 1587Q983 1587 934 1625T884 1743Z" />
<glyph unicode="&#xd7;" glyph-name="multiply" horiz-adv-x="1200" d="M868 1180L1057 997L782 723L1053 451L868 266L594 537L324 268L143 455L408 723L141 991L324 1180L594 913L868 1180Z" />
<glyph unicode="&#xd8;" glyph-name="Oslash" horiz-adv-x="1632" d="M1526 733Q1526 564 1486 426T1359 187T1138 34T815 -20Q727 -20 651 -10T508 23L424 -109L231 16L315 141Q206 241 155 392T104 735Q104 963 179 1131T413 1392T817 1485Q914 1485 997 1471T1147
1430L1223 1548L1413 1434L1331 1309Q1432 1211 1479 1064T1526 733ZM1110 733Q1110 795 1106 848T1092 944L698 324Q723 317 753 313T815 309Q924 309 988 360T1081 506T1110 733ZM520 733Q520 664 526 604T549 494L952 1133Q923 1145 889 1153T817 1161Q710 1161
645 1109T550 961T520 733Z" />
<glyph unicode="&#xd9;" glyph-name="Ugrave" horiz-adv-x="1550" d="M1401 1462V582Q1401 398 1331 263T1121 54T770 -20Q468 -20 309 135T150 573V1462H547V604Q547 449 605 379T776 309Q857 309 908 339T982 436T1006 606V1462H1401ZM774 1899Q809 1853 857
1798T954 1691T1036 1600V1571H776Q734 1597 676 1637T555 1721T437 1807T344 1878V1899H774Z" />
<glyph unicode="&#xda;" glyph-name="Uacute" horiz-adv-x="1550" d="M1401 1462V582Q1401 398 1331 263T1121 54T770 -20Q468 -20 309 135T150 573V1462H547V604Q547 449 605 379T776 309Q857 309 908 339T982 436T1006 606V1462H1401ZM1263 1899V1878Q1227 1849
1171 1808T1053 1722T932 1637T831 1571H571V1600Q606 1638 655 1690T753 1798T835 1899H1263Z" />
<glyph unicode="&#xdb;" glyph-name="Ucircumflex" horiz-adv-x="1550" d="M1401 1462V582Q1401 398 1331 263T1121 54T770 -20Q468 -20 309 135T150 573V1462H547V604Q547 449 605 379T776 309Q857 309 908 339T982 436T1006 606V1462H1401ZM977 1899Q1009 1852
1056 1796T1151 1687T1233 1600V1571H979Q926 1602 879 1638T779 1721Q725 1675 682 1640T584 1571H326V1600Q365 1637 413 1689T508 1796T584 1899H977Z" />
<glyph unicode="&#xdc;" glyph-name="Udieresis" horiz-adv-x="1550" d="M1401 1462V582Q1401 398 1331 263T1121 54T770 -20Q468 -20 309 135T150 573V1462H547V604Q547 449 605 379T776 309Q857 309 908 339T982 436T1006 606V1462H1401ZM364 1743Q364 1825
413 1863T534 1901Q603 1901 654 1863T706 1743Q706 1664 655 1626T534 1587Q462 1587 413 1625T364 1743ZM843 1743Q843 1825 892 1863T1015 1901Q1085 1901 1136 1863T1188 1743Q1188 1664 1137 1626T1015 1587Q942 1587 893 1625T843 1743Z" />
<glyph unicode="&#xdd;" glyph-name="Yacute" horiz-adv-x="1360" d="M680 920L932 1462H1360L879 571V0H481V559L0 1462H430L680 920ZM1167 1899V1878Q1131 1849 1075 1808T957 1722T836 1637T735 1571H475V1600Q510 1638 559 1690T657 1798T739 1899H1167Z" />
<glyph unicode="&#xde;" glyph-name="Thorn" horiz-adv-x="1284" d="M1219 784Q1219 684 1191 592T1098 428T927 314T664 272H553V0H158V1462H553V1249H664Q942 1249 1080 1128T1219 784ZM553 594H625Q676 594 720 613T792 674T819 782Q819 851 780 890T655 930H553V594Z" />
<glyph unicode="&#xdf;" glyph-name="germandbls" horiz-adv-x="1536" d="M1339 1190Q1339 1121 1312 1068T1245 974T1165 903T1098 851T1071 811Q1071 786 1094 767T1164 723T1278 655Q1346 612 1390 569T1455 469T1477 334Q1477 219 1425 140T1273 21T1024 -20Q886
-20 802 -8T653 39V330Q687 310 737 292T839 262T932 250Q989 250 1029 272T1069 336Q1069 359 1058 378T1007 423T883 494Q800 538 751 577T681 660T659 756Q659 820 687 864T757 941T840 1004T910 1068T938 1149Q938 1200 888 1234T748 1268Q672 1268 623 1244T550
1173T526 1059V0H135V1100Q135 1251 214 1355T433 1513T748 1567Q920 1567 1053 1526T1263 1400T1339 1190Z" />
<glyph unicode="&#xe0;" glyph-name="agrave" horiz-adv-x="1276" d="M688 1153Q903 1153 1024 1047T1145 743V0H874L799 150H791Q743 90 693 53T577 -2T418 -20Q320 -20 242 20T119 141T74 346Q74 528 200 616T565 715L754 721V737Q754 813 717 845T616 877Q549
877 467 854T301 793L188 1051Q286 1101 410 1127T688 1153ZM756 506L666 502Q558 498 515 465T471 369Q471 311 502 284T584 256Q655 256 705 301T756 418V506ZM637 1569Q672 1523 720 1468T817 1361T899 1270V1241H639Q597 1267 539 1307T418 1391T300 1477T207
1548V1569H637Z" />
<glyph unicode="&#xe1;" glyph-name="aacute" horiz-adv-x="1276" d="M688 1153Q903 1153 1024 1047T1145 743V0H874L799 150H791Q743 90 693 53T577 -2T418 -20Q320 -20 242 20T119 141T74 346Q74 528 200 616T565 715L754 721V737Q754 813 717 845T616 877Q549
877 467 854T301 793L188 1051Q286 1101 410 1127T688 1153ZM756 506L666 502Q558 498 515 465T471 369Q471 311 502 284T584 256Q655 256 705 301T756 418V506ZM1126 1569V1548Q1090 1519 1034 1478T916 1392T795 1307T694 1241H434V1270Q469 1308 518 1360T616
1468T698 1569H1126Z" />
<glyph unicode="&#xe2;" glyph-name="acircumflex" horiz-adv-x="1276" d="M688 1153Q903 1153 1024 1047T1145 743V0H874L799 150H791Q743 90 693 53T577 -2T418 -20Q320 -20 242 20T119 141T74 346Q74 528 200 616T565 715L754 721V737Q754 813 717 845T616
877Q549 877 467 854T301 793L188 1051Q286 1101 410 1127T688 1153ZM756 506L666 502Q558 498 515 465T471 369Q471 311 502 284T584 256Q655 256 705 301T756 418V506ZM839 1569Q871 1522 918 1466T1013 1357T1095 1270V1241H841Q788 1272 741 1308T641 1391Q587
1345 544 1310T446 1241H188V1270Q227 1307 275 1359T370 1466T446 1569H839Z" />
<glyph unicode="&#xe3;" glyph-name="atilde" horiz-adv-x="1276" d="M688 1153Q903 1153 1024 1047T1145 743V0H874L799 150H791Q743 90 693 53T577 -2T418 -20Q320 -20 242 20T119 141T74 346Q74 528 200 616T565 715L754 721V737Q754 813 717 845T616 877Q549
877 467 854T301 793L188 1051Q286 1101 410 1127T688 1153ZM756 506L666 502Q558 498 515 465T471 369Q471 311 502 284T584 256Q655 256 705 301T756 418V506ZM215 1237Q221 1331 240 1396T291 1501T367 1560T467 1579Q505 1579 548 1565T635 1531T721 1498T803
1483Q821 1483 842 1500T874 1581H1057Q1044 1397 977 1318T811 1239Q766 1239 721 1253T631 1287T546 1320T467 1335Q448 1335 428 1319T395 1237H215Z" />
<glyph unicode="&#xe4;" glyph-name="adieresis" horiz-adv-x="1276" d="M688 1153Q903 1153 1024 1047T1145 743V0H874L799 150H791Q743 90 693 53T577 -2T418 -20Q320 -20 242 20T119 141T74 346Q74 528 200 616T565 715L754 721V737Q754 813 717 845T616 877Q549
877 467 854T301 793L188 1051Q286 1101 410 1127T688 1153ZM756 506L666 502Q558 498 515 465T471 369Q471 311 502 284T584 256Q655 256 705 301T756 418V506ZM227 1413Q227 1495 276 1533T397 1571Q466 1571 517 1533T569 1413Q569 1334 518 1296T397 1257Q325
1257 276 1295T227 1413ZM706 1413Q706 1495 755 1533T878 1571Q948 1571 999 1533T1051 1413Q1051 1334 1000 1296T878 1257Q805 1257 756 1295T706 1413Z" />
<glyph unicode="&#xe5;" glyph-name="aring" horiz-adv-x="1276" d="M688 1153Q903 1153 1024 1047T1145 743V0H874L799 150H791Q743 90 693 53T577 -2T418 -20Q320 -20 242 20T119 141T74 346Q74 528 200 616T565 715L754 721V737Q754 813 717 845T616 877Q549
877 467 854T301 793L188 1051Q286 1101 410 1127T688 1153ZM756 506L666 502Q558 498 515 465T471 369Q471 311 502 284T584 256Q655 256 705 301T756 418V506ZM639 1237Q521 1237 448 1304T375 1489Q375 1608 448 1675T639 1743Q752 1743 831 1676T911 1491Q911
1373 832 1305T639 1237ZM639 1405Q674 1405 698 1428T723 1489Q723 1527 699 1550T639 1573Q604 1573 580 1550T555 1489Q555 1452 576 1429T639 1405Z" />
<glyph unicode="&#xe6;" glyph-name="ae" horiz-adv-x="1915" d="M1337 1153Q1481 1153 1592 1096T1766 923T1829 633V461H1133Q1138 378 1202 318T1393 258Q1471 258 1565 276T1757 344V63Q1675 20 1581 0T1341 -20Q1255 -20 1176 0T1030 62T911 170Q842 98 780
57T637 -2T434 -20Q340 -20 258 20T125 142T74 352Q74 478 136 556T310 672T571 715L754 721V739Q754 821 713 849T618 877Q551 877 468 856T305 797L195 1053Q292 1103 408 1128T649 1153Q746 1153 831 1130T985 1059Q1056 1108 1138 1130T1337 1153ZM756 506L672
502Q557 499 515 460T473 356Q473 301 504 279T586 256Q632 256 670 276T732 333T756 418V506ZM1315 887Q1243 887 1195 847T1139 707H1479Q1478 756 1459 797T1404 862T1315 887Z" />
<glyph unicode="&#xe7;" glyph-name="ccedilla" horiz-adv-x="1104" d="M651 -20Q479 -20 352 41T156 231T86 561Q86 767 163 898T376 1091T682 1153Q786 1153 879 1130T1053 1067L938 778Q868 809 808 827T682 846Q623 846 578 815T508 722T483 563Q483 465 508
405T579 318T684 291Q769 291 853 317T1014 391V80Q944 34 856 7T651 -20ZM881 -252Q881 -361 806 -426T606 -492Q536 -492 479 -481T385 -457V-264Q419 -275 451 -281T518 -287Q556 -287 578 -271T600 -229Q600 -194 567 -174T455 -139L516 0H711L692 -61Q733
-70 777 -90T851 -148T881 -252Z" />
<glyph unicode="&#xe8;" glyph-name="egrave" horiz-adv-x="1266" d="M645 1153Q810 1153 930 1096T1115 923T1180 635V461H481Q486 372 547 315T729 258Q835 258 923 279T1106 344V63Q1024 20 927 0T682 -20Q511 -20 376 41T164 230T86 559Q86 763 156 894T352
1089T645 1153ZM659 887Q590 887 544 844T489 707H825Q824 757 805 798T750 863T659 887ZM631 1569Q666 1523 714 1468T811 1361T893 1270V1241H633Q591 1267 533 1307T412 1391T294 1477T201 1548V1569H631Z" />
<glyph unicode="&#xe9;" glyph-name="eacute" horiz-adv-x="1266" d="M645 1153Q810 1153 930 1096T1115 923T1180 635V461H481Q486 372 547 315T729 258Q835 258 923 279T1106 344V63Q1024 20 927 0T682 -20Q511 -20 376 41T164 230T86 559Q86 763 156 894T352
1089T645 1153ZM659 887Q590 887 544 844T489 707H825Q824 757 805 798T750 863T659 887ZM1120 1569V1548Q1084 1519 1028 1478T910 1392T789 1307T688 1241H428V1270Q463 1308 512 1360T610 1468T692 1569H1120Z" />
<glyph unicode="&#xea;" glyph-name="ecircumflex" horiz-adv-x="1266" d="M645 1153Q810 1153 930 1096T1115 923T1180 635V461H481Q486 372 547 315T729 258Q835 258 923 279T1106 344V63Q1024 20 927 0T682 -20Q511 -20 376 41T164 230T86 559Q86 763 156 894T352
1089T645 1153ZM659 887Q590 887 544 844T489 707H825Q824 757 805 798T750 863T659 887ZM833 1569Q865 1522 912 1466T1007 1357T1089 1270V1241H835Q782 1272 735 1308T635 1391Q581 1345 538 1310T440 1241H182V1270Q221 1307 269 1359T364 1466T440 1569H833Z"
/>
<glyph unicode="&#xeb;" glyph-name="edieresis" horiz-adv-x="1266" d="M645 1153Q810 1153 930 1096T1115 923T1180 635V461H481Q486 372 547 315T729 258Q835 258 923 279T1106 344V63Q1024 20 927 0T682 -20Q511 -20 376 41T164 230T86 559Q86 763 156 894T352
1089T645 1153ZM659 887Q590 887 544 844T489 707H825Q824 757 805 798T750 863T659 887ZM477 1413Q477 1495 526 1533T647 1571Q716 1571 767 1533T819 1413Q819 1334 768 1296T647 1257Q575 1257 526 1295T477 1413ZM956 1413Q956 1495 1005 1533T1128 1571Q1198
1571 1249 1533T1301 1413Q1301 1334 1250 1296T1128 1257Q1055 1257 1006 1295T956 1413Z" />
<glyph unicode="&#xec;" glyph-name="igrave" horiz-adv-x="666" d="M528 0H137V1133H528V0ZM332 1569Q367 1523 415 1468T512 1361T594 1270V1241H334Q292 1267 234 1307T113 1391T-5 1477T-98 1548V1569H332Z" />
<glyph unicode="&#xed;" glyph-name="iacute" horiz-adv-x="666" d="M528 0H137V1133H528V0ZM821 1569V1548Q785 1519 729 1478T611 1392T490 1307T389 1241H129V1270Q164 1308 213 1360T311 1468T393 1569H821Z" />
<glyph unicode="&#xee;" glyph-name="icircumflex" horiz-adv-x="666" d="M528 0H137V1133H528V0ZM534 1569Q566 1522 613 1466T708 1357T790 1270V1241H536Q483 1272 436 1308T336 1391Q282 1345 239 1310T141 1241H-117V1270Q-78 1307 -30 1359T65 1466T141 1569H534Z" />
<glyph unicode="&#xef;" glyph-name="idieresis" horiz-adv-x="666" d="M528 0H137V1133H528V0ZM-78 1413Q-78 1495 -29 1533T92 1571Q161 1571 212 1533T264 1413Q264 1334 213 1296T92 1257Q20 1257 -29 1295T-78 1413ZM401 1413Q401 1495 450 1533T573 1571Q643
1571 694 1533T746 1413Q746 1334 695 1296T573 1257Q500 1257 451 1295T401 1413Z" />
<glyph unicode="&#xf0;" glyph-name="eth" horiz-adv-x="1313" d="M479 1573Q559 1539 624 1507T745 1438L954 1575L1069 1393L924 1296Q1020 1202 1085 1098T1184 867T1217 580Q1217 395 1147 260T950 53T649 -20Q486 -20 360 39T161 213T88 498Q88 667 151 782T322
955T567 1014Q634 1014 682 1005T762 977T811 930L819 934Q790 990 758 1041T676 1141L494 1022L377 1206L520 1298Q489 1318 449 1343T371 1391L479 1573ZM653 733Q592 733 556 709T505 633T489 500Q489 427 505 373T557 288T653 258Q744 258 780 329T817 545Q817
580 807 613T777 674T726 717T653 733Z" />
<glyph unicode="&#xf1;" glyph-name="ntilde" horiz-adv-x="1372" d="M844 1153Q1019 1153 1130 1054T1241 737V0H850V618Q850 731 818 788T713 846Q602 846 564 756T526 496V0H135V1133H430L483 983H498Q534 1037 584 1075T699 1133T844 1153ZM262 1237Q268 1331
287 1396T338 1501T414 1560T514 1579Q552 1579 595 1565T682 1531T768 1498T850 1483Q868 1483 889 1500T921 1581H1104Q1091 1397 1024 1318T858 1239Q813 1239 768 1253T678 1287T593 1320T514 1335Q495 1335 475 1319T442 1237H262Z" />
<glyph unicode="&#xf2;" glyph-name="ograve" horiz-adv-x="1305" d="M1217 569Q1217 427 1178 317T1065 132T886 19T649 -20Q526 -20 424 18T245 132T128 317T86 569Q86 757 154 887T350 1085T655 1153Q818 1153 945 1085T1144 887T1217 569ZM483 569Q483 472
500 406T554 305T653 270Q714 270 750 304T802 405T819 569Q819 666 803 731T750 829T651 862Q562 862 523 788T483 569ZM651 1569Q686 1523 734 1468T831 1361T913 1270V1241H653Q611 1267 553 1307T432 1391T314 1477T221 1548V1569H651Z" />
<glyph unicode="&#xf3;" glyph-name="oacute" horiz-adv-x="1305" d="M1217 569Q1217 427 1178 317T1065 132T886 19T649 -20Q526 -20 424 18T245 132T128 317T86 569Q86 757 154 887T350 1085T655 1153Q818 1153 945 1085T1144 887T1217 569ZM483 569Q483 472
500 406T554 305T653 270Q714 270 750 304T802 405T819 569Q819 666 803 731T750 829T651 862Q562 862 523 788T483 569ZM1141 1569V1548Q1105 1519 1049 1478T931 1392T810 1307T709 1241H449V1270Q484 1308 533 1360T631 1468T713 1569H1141Z" />
<glyph unicode="&#xf4;" glyph-name="ocircumflex" horiz-adv-x="1305" d="M1217 569Q1217 427 1178 317T1065 132T886 19T649 -20Q526 -20 424 18T245 132T128 317T86 569Q86 757 154 887T350 1085T655 1153Q818 1153 945 1085T1144 887T1217 569ZM483 569Q483
472 500 406T554 305T653 270Q714 270 750 304T802 405T819 569Q819 666 803 731T750 829T651 862Q562 862 523 788T483 569ZM854 1569Q886 1522 933 1466T1028 1357T1110 1270V1241H856Q803 1272 756 1308T656 1391Q602 1345 559 1310T461 1241H203V1270Q242 1307
290 1359T385 1466T461 1569H854Z" />
<glyph unicode="&#xf5;" glyph-name="otilde" horiz-adv-x="1305" d="M1217 569Q1217 427 1178 317T1065 132T886 19T649 -20Q526 -20 424 18T245 132T128 317T86 569Q86 757 154 887T350 1085T655 1153Q818 1153 945 1085T1144 887T1217 569ZM483 569Q483 472
500 406T554 305T653 270Q714 270 750 304T802 405T819 569Q819 666 803 731T750 829T651 862Q562 862 523 788T483 569ZM229 1237Q235 1331 254 1396T305 1501T381 1560T481 1579Q519 1579 562 1565T649 1531T735 1498T817 1483Q835 1483 856 1500T888 1581H1071Q1058
1397 991 1318T825 1239Q780 1239 735 1253T645 1287T560 1320T481 1335Q462 1335 442 1319T409 1237H229Z" />
<glyph unicode="&#xf6;" glyph-name="odieresis" horiz-adv-x="1305" d="M1217 569Q1217 427 1178 317T1065 132T886 19T649 -20Q526 -20 424 18T245 132T128 317T86 569Q86 757 154 887T350 1085T655 1153Q818 1153 945 1085T1144 887T1217 569ZM483 569Q483
472 500 406T554 305T653 270Q714 270 750 304T802 405T819 569Q819 666 803 731T750 829T651 862Q562 862 523 788T483 569ZM241 1413Q241 1495 290 1533T411 1571Q480 1571 531 1533T583 1413Q583 1334 532 1296T411 1257Q339 1257 290 1295T241 1413ZM720 1413Q720
1495 769 1533T892 1571Q962 1571 1013 1533T1065 1413Q1065 1334 1014 1296T892 1257Q819 1257 770 1295T720 1413Z" />
<glyph unicode="&#xf7;" glyph-name="divide" horiz-adv-x="1200" d="M92 588V856H1106V588H92ZM598 162Q535 162 489 202T442 332Q442 427 488 464T598 502Q660 502 708 465T756 332Q756 243 708 203T598 162ZM598 942Q535 942 489 982T442 1112Q442 1207 488
1244T598 1282Q660 1282 708 1245T756 1112Q756 1023 708 983T598 942Z" />
<glyph unicode="&#xf8;" glyph-name="oslash" horiz-adv-x="1362" d="M1274 569Q1274 380 1203 249T998 49T678 -20Q617 -20 559 -11T449 14L365 -117L195 -10L274 113Q186 188 136 303T86 569Q86 850 245 1001T684 1153Q747 1153 806 1143T918 1114L989 1225L1157
1120L1090 1016Q1176 943 1225 830T1274 569ZM461 569Q461 526 463 490T473 422L762 870Q743 877 723 880T680 883Q559 883 510 804T461 569ZM899 569Q899 606 897 639T889 700L606 258Q623 254 641 252T682 250Q765 250 812 286T879 393T899 569Z" />
<glyph unicode="&#xf9;" glyph-name="ugrave" horiz-adv-x="1372" d="M1237 1133V0H942L893 141H870Q835 84 782 49T663 -3T528 -20Q417 -20 328 23T186 158T133 395V1133H524V514Q524 404 555 347T659 289Q733 289 773 329T830 447T846 637V1133H1237ZM684 1569Q719
1523 767 1468T864 1361T946 1270V1241H686Q644 1267 586 1307T465 1391T347 1477T254 1548V1569H684Z" />
<glyph unicode="&#xfa;" glyph-name="uacute" horiz-adv-x="1372" d="M1237 1133V0H942L893 141H870Q835 84 782 49T663 -3T528 -20Q417 -20 328 23T186 158T133 395V1133H524V514Q524 404 555 347T659 289Q733 289 773 329T830 447T846 637V1133H1237ZM1173 1569V1548Q1137
1519 1081 1478T963 1392T842 1307T741 1241H481V1270Q516 1308 565 1360T663 1468T745 1569H1173Z" />
<glyph unicode="&#xfb;" glyph-name="ucircumflex" horiz-adv-x="1372" d="M1237 1133V0H942L893 141H870Q835 84 782 49T663 -3T528 -20Q417 -20 328 23T186 158T133 395V1133H524V514Q524 404 555 347T659 289Q733 289 773 329T830 447T846 637V1133H1237ZM887
1569Q919 1522 966 1466T1061 1357T1143 1270V1241H889Q836 1272 789 1308T689 1391Q635 1345 592 1310T494 1241H236V1270Q275 1307 323 1359T418 1466T494 1569H887Z" />
<glyph unicode="&#xfc;" glyph-name="udieresis" horiz-adv-x="1372" d="M1237 1133V0H942L893 141H870Q835 84 782 49T663 -3T528 -20Q417 -20 328 23T186 158T133 395V1133H524V514Q524 404 555 347T659 289Q733 289 773 329T830 447T846 637V1133H1237ZM274
1413Q274 1495 323 1533T444 1571Q513 1571 564 1533T616 1413Q616 1334 565 1296T444 1257Q372 1257 323 1295T274 1413ZM753 1413Q753 1495 802 1533T925 1571Q995 1571 1046 1533T1098 1413Q1098 1334 1047 1296T925 1257Q852 1257 803 1295T753 1413Z" />
<glyph unicode="&#xfd;" glyph-name="yacute" horiz-adv-x="1249" d="M-2 1133H410L602 483Q606 469 610 449T617 405T621 360H629Q634 401 640 431T653 481L850 1133H1249L801 -72Q749 -210 681 -303T512 -444T262 -492Q208 -492 170 -487T102 -475V-168Q124
-172 156 -176T223 -180Q288 -180 328 -154T395 -86T440 6L444 16L-2 1133ZM1112 1569V1548Q1076 1519 1020 1478T902 1392T781 1307T680 1241H420V1270Q455 1308 504 1360T602 1468T684 1569H1112Z" />
<glyph unicode="&#xfe;" glyph-name="thorn" horiz-adv-x="1317" d="M1229 569Q1229 376 1175 245T1027 47T813 -20Q743 -20 689 -2T595 46T526 109H512Q516 89 519 62T524 7T526 -43V-492H135V1556H526V1212Q526 1130 520 1074T508 987H526Q552 1033 594 1070T694
1130T827 1153Q1004 1153 1116 1005T1229 569ZM831 573Q831 707 798 776T682 846Q597 846 563 785T526 600V571Q526 436 561 366T688 295Q742 295 773 326T817 420T831 573Z" />
<glyph unicode="&#xff;" glyph-name="ydieresis" horiz-adv-x="1249" d="M-2 1133H410L602 483Q606 469 610 449T617 405T621 360H629Q634 401 640 431T653 481L850 1133H1249L801 -72Q749 -210 681 -303T512 -444T262 -492Q208 -492 170 -487T102 -475V-168Q124
-172 156 -176T223 -180Q288 -180 328 -154T395 -86T440 6L444 16L-2 1133ZM469 1413Q469 1495 518 1533T639 1571Q708 1571 759 1533T811 1413Q811 1334 760 1296T639 1257Q567 1257 518 1295T469 1413ZM948 1413Q948 1495 997 1533T1120 1571Q1190 1571 1241
1533T1293 1413Q1293 1334 1242 1296T1120 1257Q1047 1257 998 1295T948 1413Z" />
<glyph unicode="&#x2013;" glyph-name="endash" horiz-adv-x="1024" d="M74 414V690H950V414H74Z" />
<glyph unicode="&#x2014;" glyph-name="emdash" horiz-adv-x="2048" d="M74 414V690H1970V414H74Z" />
<glyph unicode="&#x2018;" glyph-name="quoteleft" horiz-adv-x="512" d="M35 877L20 899Q39 973 67 1075T129 1281T197 1460H475Q456 1367 437 1263T402 1059T377 877H35Z" />
<glyph unicode="&#x2019;" glyph-name="quoteright" horiz-adv-x="512" d="M477 1460L492 1438Q474 1364 445 1262T383 1056T315 877H37Q52 947 66 1023T94 1177T117 1326T135 1460H477Z" />
<glyph unicode="&#x201a;" glyph-name="quotesinglbase" horiz-adv-x="633" d="M500 297L515 275Q497 201 468 99T406 -107T338 -286H60Q75 -216 89 -140T117 14T140 163T158 297H500Z" />
<glyph unicode="&#x201c;" glyph-name="quotedblleft" horiz-adv-x="1022" d="M985 1460Q966 1367 947 1263T912 1059T887 877H545L530 899Q549 973 577 1075T639 1281T707 1460H985ZM475 1460Q456 1367 437 1263T402 1059T377 877H35L20 899Q39 973 67 1075T129
1281T197 1460H475Z" />
<glyph unicode="&#x201d;" glyph-name="quotedblright" horiz-adv-x="1022" d="M987 1460L1001 1438Q983 1364 955 1262T893 1056T825 877H547Q567 970 586 1074T620 1278T645 1460H987ZM477 1460L492 1438Q474 1364 445 1262T383 1056T315 877H37Q52 947 66 1023T94
1177T117 1326T135 1460H477Z" />
<glyph unicode="&#x201e;" glyph-name="quotedblbase" horiz-adv-x="1143" d="M1010 297L1024 275Q1006 201 978 99T916 -107T848 -286H570Q590 -193 609 -89T643 115T668 297H1010ZM500 297L515 275Q497 201 468 99T406 -107T338 -286H60Q75 -216 89 -140T117
14T140 163T158 297H500Z" />
<glyph unicode="&#x2022;" glyph-name="bullet" horiz-adv-x="803" d="M74 748Q74 878 117 957T235 1072T401 1108Q492 1108 566 1072T684 957T729 748Q729 620 685 541T566 424T401 387Q309 387 235 424T118 540T74 748Z" />
<glyph unicode="&#x2039;" glyph-name="guilsinglleft" horiz-adv-x="819" d="M74 588L463 1071L743 922L471 575L743 227L463 80L74 561V588Z" />
<glyph unicode="&#x203a;" glyph-name="guilsinglright" horiz-adv-x="819" d="M358 1071L745 588V561L358 80L76 227L348 575L76 922L358 1071Z" />
</font>
</defs>
</svg>
